4K Gaming Montage, Featuring:

  1. Metro: Last Light
  2. Watch Dogs
  3. Battlefield 4 (Single Player)
  4. Tomb Raider
  5. Call of Duty: Ghosts
  6. Crysis 3
  7. Batman: Arkham Origins
  8. Battlefield 4 (Multiplayer)
  9. Dark Esther

Download 4K Gaming Montage 7.77 GB (8,346,656,191 bytes)


Full File Specification

General

Complete name : K Gaming Sample (4ksamples.com).mp4
Format : MPEG-4
Format profile : Base Media / Version 2
Codec ID : mp42
File size : 7.77 GiB
Duration : 22mn 12s
Overall bit rate mode : Constant
Overall bit rate : 50.1 Mbps
Encoded date : UTC 2014-08-09 18:54:38
Tagged date : UTC 2014-08-09 18:54:38

Video

ID : 2
Format : AVC
Format/Info : Advanced Video Codec
Format profile : Baseline@L5.1
Format settings, CABAC : No
Format settings, ReFrames : 3 frames
Format settings, GOP : M=1, N=15
Codec ID : avc1
Codec ID/Info : Advanced Video Coding
Duration : 22mn 12s
Bit rate mode : Constant
Bit rate : 50.0 Mbps
Width : 3 840 pixels
Height : 2 160 pixels
Display aspect ratio : 16:9
Frame rate mode : Constant
Frame rate : 30.000 fps
Standard : NTSC
Color space : YUV
Chroma subsampling : 4:2:0
Bit depth : 8 bits
Scan type : Progressive
Bits/(Pixel*Frame) : 0.201
Stream size : 7.75 GiB (100%)
Language : English
Encoded date : UTC 2014-08-09 18:54:38
Tagged date : UTC 2014-08-09 18:54:38

Audio

ID : 1
Format : AAC
Format/Info : Advanced Audio Codec
Format profile : LC
Codec ID : 40
Duration : 22mn 12s
Bit rate mode : Constant
Bit rate : 128 Kbps
Channel(s) : channel0
Channel(s)_Original : 2 channels
Channel positions : Front: L R
Sampling rate : 44.1 KHz
Compression mode : Lossy
Stream size : 20.3 MiB (0%)
Language : English
Encoded date : UTC 2014-08-09 18:54:38
Tagged date : UTC 2014-08-09 18:54:38

 

Credit: JackFrags