2160p Demo – Timelapse Project

Full File Specification

General

Complete name : 2160p Demo – 3840×2160 pixel_4k Video – a timelapse project by Florian Friedrich.mp4
Format : MPEG-4
Format profile : Base Media / Version 2
Codec ID : mp42
File size : 224 MiB
Duration : 43s 467ms
Overall bit rate mode : Variable
Overall bit rate : 43.2 Mbps
Encoded date : UTC 2012-09-22 21:10:31
Tagged date : UTC 2012-09-22 21:10:31
gsst : 0
gstd : 43560
gssd : B4A7DA662MH1370123826871444
gshh : r7—sn-a5m7znek.c.youtube.com

Video

ID : 1
Format : AVC
Format/Info : Advanced Video Codec
Format profile : High@L5.1
Format settings, CABAC : No
Format settings, ReFrames : 1 frame
Codec ID : avc1
Codec ID/Info : Advanced Video Coding
Duration : 43s 453ms
Bit rate : 43.0 Mbps
Maximum bit rate : 79.7 Mbps
Width : 3 840 pixels
Height : 2 160 pixels
Display aspect ratio : 16:9
Frame rate mode : Variable
Frame rate : 23.841 fps
Minimum frame rate : 23.833 fps
Maximum frame rate : 28.600 fps
Color space : YUV
Chroma subsampling : 4:2:0
Bit depth : 8 bits
Scan type : Progressive
Bits/(Pixel*Frame) : 0.217
Stream size : 223 MiB (100%)
Encoded date : UTC 1970-01-01 00:00:00
Tagged date : UTC 2012-09-22 21:10:32

Audio

ID : 2
Format : AAC
Format/Info : Advanced Audio Codec
Format profile : LC
Codec ID : 40
Duration : 43s 467ms
Bit rate mode : Variable
Bit rate : 192 Kbps
Maximum bit rate : 201 Kbps
Channel(s) : 2 channels
Channel positions : Front: L R
Sampling rate : 44.1 KHz
Compression mode : Lossy
Stream size : 1 019 KiB (0%)
Title : IsoMedia File Produced by Google, 5-11-2011
Encoded date : UTC 2012-09-22 21:10:32
Tagged date : UTC 2012-09-22 21:10:32

 

Credit: Florian Friedrich